Im Not Ashamed 2016 English Movies HDRip XviD AAC New Source with Sample ☻rDX☻ Torrent Download

seeders: 340
leechers: 7
updated:
Added ago by nehalpuja ***** in Movies
Torrent Downloaded 6 times.
Info Hash: 9E56CE591F7BE94D8D4E6E0EE476DFABB9549225

Download Fast Safe Anonymous
movies, software, shows...

Torrent Files

Im Not Ashamed 2016 English Movies HDRip XviD AAC New Source with Sample ☻rDX☻ (Size: 706.1 MB)
  Im Not Ashamed 2016 English Movies HDRip XviD AAC New Source with Sample ☻rDX☻ 706.1 MB

Torrent Description



Im Not Ashamed 2016 English Movies HDRip XviD AAC New Source with Sample ☻rDX☻

SCREEN SHOTS:



or

http://postimage.co.nr/2017/1/gps/1.html

Format : Matroska
Format version : Version 4 / Version 2
File size : 699 MiB
Duration : 1 h 51 min
Overall bit rate : 878 kb/s
Movie name : Im Not Ashamed 2016 English Movies HDRip XviD AAC New Source ☻rDX☻

Video
ID : 1
Format : AVC
Format/Info : Advanced Video Codec
Format profile : [email protected]
Format settings, CABAC : Yes
Format settings, ReFrames : 5 frames
Codec ID : V_MPEG4/ISO/AVC
Duration : 1 h 51 min
Bit rate : 718 kb/s
Width : 720 pixels
Height : 384 pixels
Display aspect ratio : 16:9
Original display aspect ratio : 16:9
Frame rate mode : Constant
Frame rate : 23.976 FPS
Standard : Component
Color space : YUV
Chroma subsampling : 4:2:0
Bit depth : 8 bits
Scan type : Progressive
Bits/(Pixel*Frame) : 0.108
Stream size : 558 MiB (80%)
Title : ☻rDX☻
Writing library : XviD

Audio
ID : 2
Format : AC-3
Format/Info : Audio Coding 3
Mode extension : CM (complete main)
Format settings, Endianness : Big
Codec ID : A_AC3
Duration : 1 h 51 min
Bit rate mode : Constant
Bit rate : 160 kb/s
Channel(s) : 2 channels
Channel positions : Front: L R
Sampling rate : 48.0 kHz
Frame rate : 31.250 FPS (1536 spf)
Bit depth : 16 bits
Compression mode : Lossy
Stream size : 127 MiB (18%)
Title : ☻rDX☻
Writing library : Lavc57.51.100 ac3_fixed
Default : Yes
Forced : No



IMDB : http://www.imdb.com/title/tt4950110/



Related Torrents

torrent name size age seed leech
2.1 GB 4 minutes 237 405
4.4 GB 4 minutes 692 71
663.0 MB 4 minutes 702 332
1.9 MB 4 minutes 358 333
17.1 MB 4 minutes 573 445

Sharing Widget


Download torrent
706.1 MB
seeders:1214
leechers:386
Im Not Ashamed 2016 English Movies HDRip XviD AAC New Source with Sample ☻rDX☻



To share this torrent use the code below and insert it into comments, status messages, forum posts or your signature.

Torrent: Im Not Ashamed 2016 English Movies HDRip XviD AAC New Source with Sample ☻rDX☻

Comments

Latest Searches